Skip to main content

Smashing Pumpkins Live at Concert Hall on 1991-10-30

Audio Preview

etree
Smashing Pumpkins Live at Concert Hall on 1991-10-30


Publication date 1991-10-30 (check for other copies)
Collection SmashingPumpkins
Band/Artist Smashing Pumpkins
The Smashing Pumpkins

October 30, 1991

Concert Hall

Toronto, Ontario, Canada



Source Two

Taper: Andymon



AUD > CASS(M) > Aiwa AD-F810 3-Head Cassette Deck > Hosa Cables > E-MU 0404 Soundcard > CEP 2.1 (recording, a few dropouts repaired, cutting--no nr, no eq!) > FLAC (level 8)



01. Rocket

02. Tristessa

03. Rhinoceros

04. Bury Me

05. Siva

06. Window Paine

07. I Am One

08. Blank tape


Notes: Taped by Andymon and transferred directly from his original cassette master. I believe he was recording on a stereo Sanyo walkman, microphone unknown. A handful of dropouts were repaired using material from the opposite channel. No nr, no eq, this is the real deal. Slightly more complete than the other known source, sound is a little distorted in the highs but overall sounds "beefier". t08 is literally Blank tape from the end of the cassette. All FLACs tagged using foobar2000 v0.8.3.



First shared 2005-08-06.

Notes

ffp:

sp1991-10-30-src2t01.flac:fd20799389057bc0202e50c91eaf3f9f

sp1991-10-30-src2t02.flac:5e0d3625cd0dbdab8b7ca1c84f04ef9a

sp1991-10-30-src2t03.flac:073a1ae4fa7f19322f596633e86c6ba4

sp1991-10-30-src2t04.flac:0f9201e669b74e2ab3ff65f303a20b8b

sp1991-10-30-src2t05.flac:570eaeb648893f445cfc6001102eeca6

sp1991-10-30-src2t06.flac:38db811bda8eb584b2426c58095def3a

sp1991-10-30-src2t07.flac:018007b2d6230fd295b4d7afa5a0a1e9

sp1991-10-30-src2t08.flac:6a4c94b5cd0fa685a178bdcaa52b299e



len:

length expanded size cdr WAVE problems filename

7:28.04 79036652 --- -- ---xx sp1991-10-30-src2t01.flac

3:39.70 38796284 --- -- ---xx sp1991-10-30-src2t02.flac

5:24.68 57313580 --- -- ---xx sp1991-10-30-src2t03.flac

4:44.71 50264636 --- -- ---xx sp1991-10-30-src2t04.flac

8:17.69 87833132 --- -- ---xx sp1991-10-30-src2t05.flac

7:14.71 76724636 --- -- ---xx sp1991-10-30-src2t06.flac

5:28.08 57878060 --- -- ---xx sp1991-10-30-src2t07.flac

2:59.06 31589756 --- -- ---xx sp1991-10-30-src2t08.flac

45:17.67 479436736 B (totals for 8 files, 0.6784 overall compression ratio)

comment
Reviews

There are no reviews yet. Be the first one to write a review.
SIMILAR ITEMS (based on metadata)
Smashing Pumpkins
by Smashing Pumpkins
etree
eye 469
favorite 0
comment 0
Source: Unk. Mics>WM-D6
Smashing Pumpkins
by Smashing Pumpkins
etree
eye 431
favorite 0
comment 0
Source: AUD>ANA
Smashing Pumpkins
by Smashing Pumpkins
etree
eye 788
favorite 0
comment 0
Source: unknown analog recorder
Smashing Pumpkins
by Smashing Pumpkins
etree
eye 422
favorite 0
comment 0
Source: CSB>HSJ445
Smashing Pumpkins
by Smashing Pumpkins
etree
eye 3,492
favorite 0
comment 0
Source: AUD>ANA
Smashing Pumpkins
by Smashing Pumpkins
etree
eye 345
favorite 0
comment 0
Source: AUD > VID
Smashing Pumpkins
by Smashing Pumpkins
etree
eye 2,998
favorite 0
comment 0
Source: unknown analog recorder
Smashing Pumpkins
by Smashing Pumpkins
etree
eye 1,549
favorite 0
comment 0
Source: Zoom Q3HD video camera
Smashing Pumpkins
by Smashing Pumpkins
etree
eye 586
favorite 0
comment 2
( 2 reviews )
Source: VHS > DVD
Smashing Pumpkins
by Smashing Pumpkins
etree
eye 608
favorite 0
comment 0
Source: AMT VID(2)